Enter Here To DownLoad Bangla Moviez
#4718529
Thammar Boyfriend (Bengali Movie)-1CD-
HD Rip[Mp4 - AAC3(2Ch)]


Image
Image
Image
Image
Image
Image

Code: 
Please Login / Register to view the Link
General
Format                                   : MPEG-4
Format profile                           : Base Media / Version 2
Codec ID                                 : mp4
File size                                : 698 MiB

Video
ID                                       : 2
Format                                   : AVC
Format/Info                              : Advanced Video Codec
Format profile                           : High@L3
Format settings                          : CABAC / 3 Ref Frames
Format settings, CABAC                   : Yes
Format settings, RefFrames               : 3 frames
Codec ID                                 : avc1
Codec ID/Info                            : Advanced Video Coding
Duration                                 : 2 h 26 min
Bit rate mode                            : Constant
Bit rate                                 : 565 kb/s
Nominal bit rate                         : 603 kb/s / 603 kb/s
Width                                    : 720 pixels
Height                                   : 576 pixels
Display aspect ratio                     : 16:9
Frame rate mode                          : Constant
Frame rate                               : 25.000 FPS
Standard                                 : NTSC
Color space                              : YUV
Chroma subsampling                       : 4:2:0
Bit depth                                : 8 bits
Scan type                                : Progressive
Bits/(Pixel*Frame)                       : 0.055
Stream size                              : 593 MiB (85%)

Audio
ID                                       : 1
Format                                   : AAC
Format/Info                              : Advanced Audio Codec
Format profile                           : LC
Codec ID                                 : mp4a-40-2
Duration                                 : 2 h 26 min
Bit rate mode                            : Variable
Bit rate                                 : 96.0 kb/s
Maximum bit rate                         : 576 kb/s
Channel(s)                               : 2 channels
Channel positions                        : Front: L R
Sampling rate                            : 48.0 kHz
Stream size                              : 101 MiB (14%)

Thumbnail
Image
Image
Image
Image

Image
Please Login / Register to view the Link

Please Login / Register to view the Link

Please Login / Register to view the Link
By Advertisement Bot
#...?