Enter Here To DownLoad Bangla Moviez
#4716300
Monchora - Bengali Movie HDRip 720p WEBDL [x264 AAC3(5 1Ch)]
Image
Image
Image
Image
Code: 
Please Login / Register to view the Link
                                                 
General
Format                                   : Matroska
Format version                           : Version 2
File size                                : 699 MiB
Duration                                 : 1 h 59 min

Video
ID                                       : 1
Format                                   : AVC
Format/Info                              : Advanced Video Codec
Format profile                           : High@L3.1
Format settings                          : CABAC / 16 Ref Frames
Format settings, CABAC                   : Yes
Format settings, RefFrames               : 16 frames
Codec ID                                 : V_MPEG4/ISO/AVC
Duration                                 : 1 h 59 min
Bit rate                                 : 688 kb/s
Width                                    : 640 pixels
Height                                   : 272 pixels
Display aspect ratio                     : 2.35:1
Frame rate mode                          : Constant
Frame rate                               : 25.000 FPS
Color space                              : YUV
Chroma subsampling                       : 4:2:0
Bit depth                                : 8 bits
Scan type                                : Progressive
Bits/(Pixel*Frame)                       : 0.158
Stream size                              : 588 MiB (84%)

Audio
ID                                       : 2
Format                                   : AAC
Format/Info                              : Advanced Audio Codec
Format profile                           : HE-AAC / LC
Format settings                          : Explicit
Codec ID                                 : A_AAC-2
Duration                                 : 1 h 59 min
Bit rate                                 : 128 kb/s
Channel(s)                               : 6 channels
Channel positions                        : Front: L C R, Side: L R, LFE
Sampling rate                            : 48.0 kHz / 24.0 kHz
Stream size                              : 109 MiB (16%)

Thumbnail
Image
Image
Image
Image
Image
LINKS ARE INTERCHANGEABLE

Please Login / Register to view the Link
]
OR
Please Login / Register to view the Link

OR
Please Login / Register to view the Link

OR
Please Login / Register to view the Link

OR
Please Login / Register to view the Link

OR
Please Login / Register to view the Link

OR
Please Login / Register to view the Link

OR
Please Login / Register to view the Link
By Advertisement Bot
#...?