Enter Here To DownLoad Bangla Moviez
#4700244
Shunyota (2017) Bengali Movie - 1CD -
DvDScr Rip[Mp4 - AAC3(2Ch)] - 700MB


Image
Image
Image
Image
Code: 
Please Login / Register to view the Link
General
Format                                   : MPEG-4
Format profile                           : Base Media
Codec ID                                 : isom (isom)
File size                                : 700 MiB
Duration                                 : 1 h 58 min

Video
ID                                       : 1
Format                                   : AVC
Format/Info                              : Advanced Video Codec
Format profile                           : High@L3
Format settings, CABAC                   : Yes
Format settings, ReFrames                : 4 frames
Codec ID                                 : avc1
Codec ID/Info                            : Advanced Video Coding
Duration                                 : 1 h 58 min
Bit rate                                 : 698 kb/s
Maximum bit rate                         : 2 780 kb/s
Width                                    : 720 pixels
Height                                   : 384 pixels
Display aspect ratio                     : 1.85:1
Frame rate mode                          : Constant
Frame rate                               : 25.000 FPS
Color space                              : YUV
Chroma subsampling                       : 4:2:0
Bit depth                                : 8 bits
Scan type                                : Progressive
Bits/(Pixel*Frame)                       : 0.101
Stream size                              : 590 MiB (84%)

Audio
ID                                       : 2
Format                                   : AAC
Format/Info                              : Advanced Audio Codec
Format profile                           : LC
Codec ID                                 : 40
Duration                                 : 1 h 58 min
Bit rate mode                            : Variable
Bit rate                                 : 128 kb/s
Maximum bit rate                         : 133 kb/s
Channel(s)                               : 2 channels
Channel positions                        : Front: L R
Sampling rate                            : 48.0 kHz
Stream size                              : 108 MiB (15%)

Thumbnail
Image
Image
Image
Image

Image
Please Login / Register to view the Link

Please Login / Register to view the Link

Please Login / Register to view the Link

Please Login / Register to view the Link

Please Login / Register to view the Link
By Advertisement Bot
#...?