Enter Here To DownLoad Bangla Moviez
#4598305
Dev I love You(2017) Zee Bangla Cinema - HDTV Rip - 700 MB - Mpeg

Image
Image

    General
    Format : MPEG-PS
    File size : 700 MiB
    Duration : 2 h 24 min

    Video
    ID : 224 (0xE0)
    Format : MPEG Video
    Format version : Version 2
    Format profile : Main@Main
    Format settings, BVOP : Yes
    Format settings, Matrix : Custom
    Format settings, GOP : Variable
    Duration : 2 h 24 min
    Bit rate mode : Variable
    Bit rate : 604 kb/s
    Width : 352 pixels
    Height : 288 pixels
    Display aspect ratio : 4:3
    Frame rate : 25.000 FPS
    Standard : PAL
    Color space : YUV
    Chroma subsampling : 4:2:0
    Bit depth : 8 bits
    Scan type : Progressive
    Stream size : 621 MiB (89%)

    Audio
    ID : 192 (0xC0)
    Format : MPEG Audio
    Format version : Version 1
    Format profile : Layer 2
    Duration : 2 h 24 min
    Bit rate mode : Constant
    Bit rate : 64.0 kb/s
    Channel(s) : 2 channels
    Sampling rate : 48.0 kHz
    Compression mode : Lossy
    Stream size : 66.2 MiB (9%)

Thumbnail


Image
Image
Image


Image


https://bdupload.info/3mnfd0zf332s

Please Login / Register to view the Link


Please Login / Register to view the Link


Please Login / Register to view the Link


Please Login / Register to view the Link
#41;_Zee_Bangla_Cinema_-_HDTV_Rip_-_700_MB.mpg.html

Please Login / Register to view the Link


Image
By Advertisement Bot
#...?