Enter Here To DownLoad Bangla Moviez
#4462811
Nimki Phulki (2017) Zee Bangla Cinema -
2CD - DTHRip[Xvid - Mp3]

Image
Image
Image
Image
Image
Image

Code: 
Please Login / Register to view the Link
                                                 
General
Format                                   : Matroska
Format version                           : Version 2
File size                                : 1.40 GiB
Duration                                 : 2 h 19 min

Video
ID                                       : 1
Format                                   : AVC
Format/Info                              : Advanced Video Codec
Format profile                           : High@L3
Format settings, CABAC                   : Yes
Format settings, ReFrames                : 4 frames
Codec ID                                 : V_MPEG4/ISO/AVC
Duration                                 : 2 h 19 min
Bit rate                                 : 1 248 kb/s
Width                                    : 720 pixels
Height                                   : 360 pixels
Display aspect ratio                     : 2.000
Frame rate mode                          : Constant
Frame rate                               : 25.000 FPS
Color space                              : YUV
Chroma subsampling                       : 4:2:0
Bit depth                                : 8 bits
Scan type                                : Progressive
Bits/(Pixel*Frame)                       : 0.193
Stream size                              : 1.22 GiB (87%)

Audio
ID                                       : 2
Format                                   : AC-3
Format/Info                              : Audio Coding 3
Format settings, Endianness              : Big
Codec ID                                 : A_AC3
Duration                                 : 2 h 19 min
Bit rate mode                            : Constant
Bit rate                                 : 192 kb/s
Channel(s)                               : 6 channels
Channel positions                        : Front: L C R, Side: L R, LFE
Sampling rate                            : 48.0 kHz
Stream size                              : 192 MiB (13%)

Thumbnail
Image
Image
Image

Image
LINKS ARE INTERCHANGEABLE

Please Login / Register to view the Link

Please Login / Register to view the Link

OR
Please Login / Register to view the Link

Please Login / Register to view the Link

OR
Please Login / Register to view the Link

Please Login / Register to view the Link

OR
Please Login / Register to view the Link

Please Login / Register to view the Link

OR
Please Login / Register to view the Link

Please Login / Register to view the Link
By Advertisement Bot
#...?