Enter Here To DownLoad Bangla Moviez
#4456245
Meher Aali (2017) Bengali Movie -
2CD - Pre DvDScr Rip[Xvid - Mp3]

Image
Image
Image
Image

Code: 
Please Login / Register to view the Link
                                                 
General
Format                                   : AVI
Format/Info                              : Audio Video Interleave
File size                                : 1.40 GiB
Duration                                 : 2 h 49 min

Video
ID                                       : 0
Format                                   : MPEG-4 Visual
Format profile                           : Advanced Simple@L5
Format settings, BVOP                    : 1
Format settings, QPel                    : No
Format settings, GMC                     : No warppoints
Format settings, Matrix                  : Default (H.263)
Codec ID                                 : XVID
Duration                                 : 2 h 49 min
Bit rate                                 : 1 046 kb/s
Width                                    : 720 pixels
Height                                   : 360 pixels
Display aspect ratio                     : 2.000
Frame rate                               : 25.000 FPS
Color space                              : YUV
Chroma subsampling                       : 4:2:0
Bit depth                                : 8 bits
Scan type                                : Progressive
Compression mode                         : Lossy
Bits/(Pixel*Frame)                       : 0.161
Stream size                              : 1.24 GiB (89%)

Audio
ID                                       : 1
Format                                   : MPEG Audio
Format version                           : Version 1
Format profile                           : Layer 3
Mode                                     : Joint stereo
Mode extension                           : MS Stereo
Codec ID                                 : 55
Codec ID/Hint                            : MP3
Duration                                 : 2 h 49 min
Bit rate mode                            : Constant
Bit rate                                 : 128 kb/s
Channel(s)                               : 2 channels
Sampling rate                            : 48.0 kHz
Compression mode                         : Lossy
Stream size                              : 155 MiB (11%)


Thumbnail

Image
Image
Image
Image


Image
LINKS ARE INTERCHANGEABLE

Please Login / Register to view the Link

Please Login / Register to view the Link

OR
Please Login / Register to view the Link

Please Login / Register to view the Link

OR
Please Login / Register to view the Link

Please Login / Register to view the Link

OR
Please Login / Register to view the Link

Please Login / Register to view the Link

OR
Please Login / Register to view the Link

Please Login / Register to view the Link
By Advertisement Bot
#...?