Enter Here To DownLoad Bangla Moviez
#2173702
Image
Image
Image

Image

Tilottoma dreams a lot. Sometimes of a tumult of colours that almost suffocates her, sometimes of a long, deserted corridor of some ancient palatial house that seems to have no end. Tilottoma fears her dreams. Why? Amartya is the last in line of a house of royals. The descendent of kings is now a psychiatrist in a city hospital, his kingdom has disappeared, and his palace has worn out. But who know...s, if his blood still boils with ancestral pride? His desire still finds satisfaction in the royal games of old? Does it really matter if the one to pay the price for it is his own wife? Arya stands at the margin of this whirlwind of dream-reality-memory-modernity. A vagabond, a weirdo, an artist - his advent suddenly changes all equations, shakes up the very foundation of secrets that the royal palace had kept buried for all these years for good. A web of secrets, deceits, games and lies ... and three human beings caught up in a dangerous tangle of love, lust and passion...

General
Format : Matroska
Format version : Version 2
File size : 2.21 GiB
Duration : 1h 45mn
Overall bit rate : 3 000 Kbps
Video
ID : 1
Format : AVC
Format/Info : Advanced Video Codec
Format profile : High@L5.0
Format settings, CABAC : Yes
Format settings, ReFrames : 15 frames
Codec ID : V_MPEG4/ISO/AVC
Duration : 1h 45mn
Bit rate : 2 549 Kbps
Width : 1 280 pixels
Height : 544 pixels
Display aspect ratio : 2.35:1
Frame rate mode : Constant
Frame rate : 29.970 fps
Color space : YUV
Chroma subsampling : 4:2:0
Bit depth : 8 bits
Scan type : Progressive
Bits/(Pixel*Frame) : 0.122
Stream size : 1.83 GiB (83%)

Audio
ID : 2
Format : AC-3
Format/Info : Audio Coding 3
Mode extension : CM (complete main)
Format settings, Endianness : Big
Codec ID : A_AC3
Duration : 1h 45mn
Bit rate mode : Constant
Bit rate : 448 Kbps
Channel(s) : 6 channels
Channel positions : Front: L C R, Side: L R, LFE
Sampling rate : 48.0 KHz
Bit depth : 16 bits
Compression mode : Lossy
Stream size : 337 MiB (15%)
Default : Yes
Forced : No

Source: Deshi Digital Dhoom



Image
Image
Image
Image
Image
Image

Image


Sample:
Please Login / Register to view the Link



Single links

Jong.li:
Please Login / Register to view the Link


Arabloads:
Please Login / Register to view the Link


Split links

Shareblue:
Please Login / Register to view the Link

Please Login / Register to view the Link

Please Login / Register to view the Link

Please Login / Register to view the Link

Please Login / Register to view the Link

Please Login / Register to view the Link


Arabloads:
Please Login / Register to view the Link

Please Login / Register to view the Link

Please Login / Register to view the Link

Please Login / Register to view the Link

Please Login / Register to view the Link

Please Login / Register to view the Link





Image
Last edited by ..ShOpNoHiN.. on 24 Jun 2013, 14:00, edited 1 time in total.
By Advertisement Bot
#...?
#2173773
What a Nice Post. Thanks BRO