Enter Here To DownLoad Bangla Muzic Video
#4323860
Masrafi. Oficial Bangla Song 2017

ScreenShot


Please Login / Register to view the Link
Please Login / Register to view the Link
Please Login / Register to view the Link
Please Login / Register to view the Link
Please Login / Register to view the Link
Please Login / Register to view the Link


Information

Format : Windows Media
File size : 113 MiB
Duration : 8 min 45 s
Overall bit rate mode : Constant
Overall bit rate : 1 805 kb/s
Maximum Overall bit rate : 5 285 kb/s
Encoded date : UTC 2017-04-11 20:02:07.784
SfOriginalFPS : 250000

Video
ID : 2
Format : VC-1
Format profile : MP@HL
Codec ID : WMV3
Codec ID/Info : Windows Media Video 9
Codec ID/Hint : WMV3
Description of the codec : Windows Media Video 9 - Professional
Duration : 8 min 45 s
Bit rate mode : Constant
Bit rate : 5 051 kb/s
Width : 1 280 pixels
Height : 720 pixels
Display aspect ratio : 16:9
Frame rate : 25.000 FPS
Color space : YUV
Chroma subsampling : 4:2:0
Bit depth : 8 bits
Scan type : Progressive
Compression mode : Lossy
Bits/(Pixel*Frame) : 0.219
Stream size : 316 MiB
Language : English (United States)

Audio
ID : 1
Format : WMA
Format profile : Pro
Codec ID : 162
Codec ID/Info : Windows Media Audio
Description of the codec : Windows Media Audio 10 Professional - 192 kbps, 48 kHz, 2 channel 16 bit (A/V) 1-pass CBR
Duration : 8 min 45 s
Bit rate mode : Constant
Bit rate : 192 kb/s
Channel(s) : 2 channels
Sampling rate : 48.0 kHz
Bit depth : 16 bits
Stream size : 12.0 MiB (11%)
Language : English (United States)



Download Link

Please Login / Register to view the Link


Uploaded By Sudipto
By Advertisement Bot
#...?