Enter Here To DownLoad Bangla Muzic Video
#4322746
Ami Bangladeshi _ Bangla New Song 2017 _ Official Music Video By Smart-Twins

ScreenShot

Please Login / Register to view the Link
Please Login / Register to view the Link
Please Login / Register to view the Link
Please Login / Register to view the Link
Please Login / Register to view the Link
Please Login / Register to view the Link


Information

Format : MPEG-4
Format profile : Base Media / Version 2
Codec ID : mp42 (isom/mp42)
File size : 32.5 MiB
Duration : 4 min 8 s
Overall bit rate mode : Variable
Overall bit rate : 1 098 kb/s
Encoded date : UTC 2017-04-11 09:45:39
Tagged date : UTC 2017-04-11 09:45:39
gsst : 0
gstd : 248453

Video
ID : 1
Format : AVC
Format/Info : Advanced Video Codec
Format profile : Main@L3.1
Format settings, CABAC : Yes
Format settings, ReFrames : 3 frames
Codec ID : avc1
Codec ID/Info : Advanced Video Coding
Duration : 4 min 8 s
Bit rate : 969 kb/s
Width : 1 280 pixels
Height : 720 pixels
Display aspect ratio : 16:9
Frame rate mode : Constant
Frame rate : 30.000 FPS
Color space : YUV
Chroma subsampling : 4:2:0
Bit depth : 8 bits
Scan type : Progressive
Bits/(Pixel*Frame) : 0.035
Stream size : 28.7 MiB (88%)
Title : ISO Media file produced by Google Inc.
Encoded date : UTC 2017-04-11 09:45:39
Tagged date : UTC 2017-04-11 09:45:39
Color range : Limited
Color primaries : BT.709
Transfer characteristics : BT.709
Matrix coefficients : BT.709

Audio
ID : 2
Format : AAC
Format/Info : Advanced Audio Codec
Format profile : LC
Codec ID : 40
Duration : 4 min 8 s
Bit rate mode : Variable
Bit rate : 126 kb/s
Channel(s) : 2 channels
Channel positions : Front: L R
Sampling rate : 44.1 kHz
Frame rate : 43.066 FPS (1024 spf)
Compression mode : Lossy
Stream size : 3.72 MiB (11%)
Title : ISO Media file produced by Google Inc.
Encoded date : UTC 2017-04-11 09:45:39
Tagged date : UTC 2017-04-11 09:45:39



Download Link

Please Login / Register to view the Link


Uploaded By Sudipto
By Advertisement Bot
#...?